&;

Idioma: Español/España
Audio: Mp3 128 kbps (Microphone)
Video: 720×304
Formato:
Calidad: HDRiP
: 1,9 GB.

General
Complete name : Q:\Evilsega\\Micmacs.2011.HDRiP.ESP.Evilsega.avi
Format : AVI
Format/Info : Audio Video Interleave
File size : 1.97 GiB
Duration : 1h 44mn
Overall bit rate : 2 703 Kbps
Movie name : Micmacs.A.Tire.Larigot.2009.French.BDRip.XviD.AC3-TFTD
Writing application : VirtualDubMod 1.5.4.1 (build 2178/release)
Writing library : VirtualDubMod build 2178/release

Video
ID : 0
Format : MPEG-4 Visual
Format profile : Simple@L3
, BVOP : No
Format settings, QPel : No
Format settings, GMC : No warppoints
Format settings, Matrix : Default (H.263)
Codec ID : XVID
Codec ID/Hint : XviD
Duration : 1h 44mn
Bit rate : 2 566 Kbps
Width : 720 pixels
Height : 304 pixels
Display aspect ratio : 2.35:1
Frame rate : 23.976 fps
Color space : YUV
Chroma subsampling : 4:2:0
Bit depth : 8 bits
Scan type : Progressive
Compression mode : Lossy
Bits/(Pixel*Frame) : 0.489
Stream size : 1.87 GiB (95%)
Title : Micmacs.A.Tire.Larigot.2009.French.BDRip.XviD.AC3-TFTD
Writing library : XviD 1.2.1 (UTC 2008-12-04)

Audio
ID : 1
Format : MPEG Audio
Format version : Version 1
Format profile : Layer 3
Mode :
Mode extension : MS Stereo
Codec ID : 55
Codec ID/Hint : MP3
Duration : 1h 44mn
Bit : Constant
Bit rate : 128 Kbps
Channel(s) : 2 channels
: 44.1 KHz
Compression mode : Lossy
Stream size : 95.4 MiB (5%)
Alignment : Split accross interleaves
Interleave, duration : 42 ms (1.00 )
Interleave, preload duration : 500 ms
Writing library : LAME3.98r
Encoding settings : -m j -V 4 -q 3 -lowpass 17 -b 128

    Micmacs[2011][HDrip][Español/España][Comedia/crimen][WU]
    Micmacs[2011][HDrip][Español/España][Comedia/crimen][WU]
    Micmacs[2011][HDrip][Español/España][Comedia/crimen][WU]

    Micmacs[2011][HDrip][Español/España][Comedia/crimen][WU]
    Micmacs[2011][HDrip][Español/España][Comedia/crimen][WU]

    Micmacs[2011][HDrip][Español/España][Comedia/crimen][WU]

http://www.wupload.com/file/25710020

http://www.wupload.com/file/25709855

http://www.wupload.com/file/25709075

http://www.wupload.com/file/25708891

http://www.wupload.com/file/25708190

post Relacionados:

  1. Peliculas – Transformers 3: El Lado Oscuro De La Luna [2011] TS-HQ Castellano
  2. Peliculas – Rio (2011) DVDRip Latino (1 Link)
  3. Pelicula – Avatar (2009) [DVDScreener][RMVB][Español][C.Ficcion]
  4. Pelicula – Kung Fu Panda 2 [TS HQ] [Castellano] [2011]
  5. Peliculas – Cars 2 2011 TSHQ MKV/X264 Español Latino-Eng